<?xml version="1.0" standalone="no"?>
<!DOCTYPE svg PUBLIC "-//W3C//DTD SVG 1.1//EN" "http://www.w3.org/Graphics/SVG/1.1/DTD/svg11.dtd" >
<svg xmlns="http://www.w3.org/2000/svg">
<metadata>Generated by IcoMoon</metadata>
<defs>
<font id="stmicons" horiz-adv-x="1024">
<font-face units-per-em="1024" ascent="960" descent="-64" />
<missing-glyph horiz-adv-x="1024" />
<glyph unicode="&#x20;" horiz-adv-x="512" d="" />
<glyph unicode="&#x10ffe7;" glyph-name="head_3" horiz-adv-x="1215" d="M911.916 945.225l-0.805 0.146h-0.132c-32.475 9.239-69.773 14.551-108.311 14.551-34.643 0-68.283-4.293-100.418-12.375l2.831 0.603c-2.655-0.485-4.951-1.093-7.173-1.858l0.342 0.102-4.462-1.17c-6.276-1.609-12.654-3.511-19.339-5.559-47.603-12.831-89.263-32.759-126.216-58.901l1.23 0.825c-63.787-45.346-109.899-111.944-128.164-189.3l-0.436-2.188c-5.412-18.912-9.589-41.257-11.709-64.199l-0.111-1.483c-0.407-3.372-0.64-7.276-0.64-11.234 0-5.381 0.429-10.662 1.256-15.81l-0.075 0.566c0.726-4.37 1.141-9.404 1.141-14.536 0-0.084 0-0.168 0-0.252v0.013-0.293c-0.152-15.267-4.179-29.561-11.141-41.988l0.228 0.443-46.139-83.529c-7.57-13.511-12.205-29.573-12.651-46.678l-0.003-0.134c-0.015-0.59-0.024-1.284-0.024-1.981 0-31.527 17.993-58.852 44.27-72.266l0.459-0.213c-1.125-3.289-2.004-7.151-2.475-11.138l-0.026-0.272c-0.178-1.892-0.28-4.091-0.28-6.314 0-14.523 4.341-28.032 11.797-39.3l-0.165 0.265c-0.91-4.082-1.431-8.77-1.431-13.579 0-14.802 4.936-28.45 13.251-39.39l-0.117 0.161v-63.488c-0.023-0.595-0.036-1.294-0.036-1.996 0-14.903 5.879-28.433 15.443-38.398l-0.018 0.019c4.281-4.445 9.235-8.2 14.708-11.111l0.316-0.153c0.34-0.211 0.633-0.453 0.89-0.729l0.002-0.003 0.293-0.293c21.943-18.725 56.174-27.063 101.669-24.869 24.505 1.283 47.5 4.679 69.731 10.035l-2.586-0.526c2.985 0.661 6.497 1.131 10.087 1.31l0.153 0.006 25.541-94.939c2.184-8.036 8.149-14.324 15.816-16.918l0.173-0.051c2.27-0.713 4.883-1.139 7.591-1.17h0.016c13.469 0.042 24.371 10.97 24.371 24.444 0 2.232-0.299 4.393-0.859 6.447l0.040-0.171-29.33 109.129c-2.994 10.807-11.659 19.023-22.509 21.323l-0.194 0.035c-5.655 1.062-12.161 1.669-18.809 1.669-7.977 0-15.749-0.875-23.227-2.533l0.71 0.132-0.702-0.146c-37.493-9.070-101.844-15.214-125.44 4.827-1.308 1.114-2.477 2.311-3.53 3.607l-0.040 0.050c-3.814 5.028-6.109 11.39-6.109 18.288 0 1.081 0.056 2.149 0.166 3.201l-0.011-0.131c2.794 8.777 12.859 45.641-6.378 73.435-1.98 2.959-4.104 5.543-6.453 7.901l-0.876 0.876c-2.58 2.663-4.171 6.299-4.171 10.306 0 2.722 0.734 5.272 2.015 7.465l-0.038-0.070 6.217 13.897-9.494 11.849c-4.971 5.222-8.21 12.134-8.771 19.79l-0.006 0.105c0.321 2.193 1.431 4.081 3.028 5.401l0.014 0.012c5.159 4.538 8.397 11.154 8.397 18.526 0 0.019 0 0.037 0 0.056v-0.003 7.461c0 0.013 0 0.029 0 0.044 0 11.444-7.767 21.075-18.317 23.907l-0.173 0.040c-10.238 2.667-19.213 6.423-27.489 11.248l0.514-0.277c-7.017 4.496-11.752 12.023-12.356 20.689l-0.005 0.084c-0.050 0.616-0.078 1.333-0.078 2.057 0 4.827 1.254 9.361 3.455 13.294l-0.071-0.138 60.738 110.007c2.194 3.218 15.784 25.893 9.757 87.479-0.053 0.602-0.083 1.303-0.083 2.011 0 1.252 0.094 2.482 0.275 3.683l-0.017-0.135c0 0.585 0.117 1.024 0.132 1.17l2.926 26.185 0.176 1.17c13.868 70.363 63.737 195.291 241.971 243.566h1.214l5.281 1.755c0.328 0.031 0.627 0.135 0.886 0.298l-0.008-0.005 3.628 0.731c27.929 5.707 60.093 9.054 93.011 9.216h2.967c17.101-0.002 33.915-1.225 50.361-3.586l-1.882 0.222c28.334-4.728 53.627-12.155 77.548-22.204l-2.269 0.846c130.176-55.617 221.236-179.526 228.449-325.49l0.034-0.873c0.163-3.964 0.255-8.615 0.255-13.288 0-9.121-0.353-18.159-1.046-27.102l0.074 1.186v-0.293c-14.198-135.504-103.646-247.038-225.292-292.942l-2.417-0.8c-2.959-1.176-5.512-2.704-7.772-4.573l0.048 0.039c-9.54-5.449-15.866-15.559-15.866-27.148 0-3.097 0.452-6.089 1.293-8.913l-0.056 0.221 3.628-12.581 29.433-125.513c2.53-11.065 12.289-19.196 23.947-19.196 13.55 0 24.535 10.985 24.535 24.535 0 1.892-0.214 3.735-0.62 5.504l0.032-0.165-27.121 127.707c26.765 11.339 49.677 23.926 71.125 38.506l-1.42-0.911c106.569 72.61 175.96 192.93 177.238 329.532l0.001 0.196c0 3.072 0 5.998 0 8.923-2.836 184.519-129.211 338.749-299.928 383.808l-2.81 0.63zM319.181 75.849c-3 10.803-11.662 19.017-22.509 21.323l-0.195 0.035c-5.655 1.062-12.161 1.669-18.809 1.669-7.977 0-15.749-0.875-23.227-2.533l0.71 0.132-0.702-0.293c-37.508-8.923-101.859-15.214-125.455 4.974-1.34 1.082-2.513 2.283-3.533 3.607l-0.037 0.050c-3.806 5.025-6.096 11.38-6.096 18.271 0 1.087 0.057 2.161 0.168 3.219l-0.011-0.132c2.779 8.631 12.844 45.641-6.378 73.435-2.035 2.945-4.154 5.525-6.468 7.916l0.016-0.017-0.892 0.878c-2.593 2.653-4.192 6.286-4.192 10.293 0 2.729 0.742 5.285 2.036 7.477l-0.037-0.069 6.217 13.897-9.494 11.849c-4.942 5.186-8.175 12.041-8.77 19.637l-0.007 0.111c0.249 2.214 1.379 4.124 3.025 5.399l0.018 0.013c5.152 4.62 8.383 11.294 8.397 18.722v7.463c-0.020 11.444-7.767 21.074-18.301 23.95l-0.174 0.041c-10.238 2.664-19.213 6.42-27.487 11.247l0.512-0.276c-7.020 4.493-11.757 12.022-12.357 20.689l-0.005 0.083c-0.052 0.632-0.082 1.367-0.082 2.11 0 4.808 1.251 9.324 3.444 13.241l-0.071-0.137 60.752 110.007c2.18 3.072 15.77 25.893 9.743 87.479-0.048 0.59-0.075 1.277-0.075 1.97 0 1.266 0.091 2.51 0.267 3.728l-0.016-0.139c0 0.439 0.117 1.024 0.146 1.17l2.926 26.185 0.176 1.17c13.868 70.363 63.737 195.291 241.971 243.566h1.273l5.281 1.609c0.252 0.151 0.55 0.255 0.867 0.292l0.010 0.001 3.628 0.878c15.193 4.338 32.882 7.364 51.093 8.452l0.693 0.033c15.272 18.139 51.858 34.962 70.641 50.176-11.049 1.086-23.884 1.705-36.864 1.705-34.429 0-67.84-4.357-99.712-12.549l2.769 0.604c-2.642-0.428-4.944-0.988-7.175-1.705l0.344 0.095-4.389-1.17c-6.29-1.609-12.668-3.511-19.354-5.559-47.588-12.975-89.225-32.887-126.242-58.923l1.271 0.847c-63.787-45.346-109.899-111.944-128.164-189.3l-0.436-2.188c-5.406-18.947-9.583-41.344-11.708-64.334l-0.112-1.494c-0.414-3.379-0.649-7.29-0.649-11.257 0-5.373 0.433-10.646 1.266-15.784l-0.075 0.563c0.717-4.288 1.127-9.229 1.127-14.266 0-0.128 0-0.255-0.001-0.382v0.020-0.439c-0.147-15.266-4.169-29.56-11.126-41.989l0.228 0.444-46.139-83.529c-7.585-13.508-12.227-29.571-12.666-46.68l-0.003-0.131c-0.014-0.553-0.021-1.203-0.021-1.856 0-31.561 17.986-58.922 44.268-72.39l0.458-0.213c-1.103-3.238-1.976-7.049-2.459-10.981l-0.028-0.283c-0.182-1.915-0.286-4.141-0.286-6.391 0-14.545 4.337-28.077 11.789-39.372l-0.166 0.268c-0.909-4.070-1.43-8.745-1.43-13.542 0-14.766 4.936-28.379 13.248-39.279l-0.116 0.158v-63.488c-0.026-0.632-0.041-1.374-0.041-2.12 0-14.911 5.88-28.448 15.448-38.42l-0.018 0.019c4.275-4.396 9.226-8.105 14.691-10.966l0.318-0.152c0.293-0.293 0.585-0.585 0.907-0.878l0.293-0.146c21.943-18.725 56.159-27.209 101.669-25.015 24.574 1.372 47.563 4.764 69.821 10.044l-2.676-0.535c2.986 0.662 6.498 1.132 10.088 1.311l0.152 0.006 25.527-94.939c2.152-8.021 8.144-14.283 15.834-16.775l0.17-0.048c2.149-0.744 4.626-1.174 7.203-1.174 0.142 0 0.283 0.001 0.425 0.004h-0.021c0.041 0 0.089 0 0.137 0 5.732 0 11 1.985 15.155 5.304l-0.049-0.038c5.585 4.544 9.125 11.418 9.125 19.118 0 2.253-0.303 4.435-0.87 6.508l0.040-0.173zM733.784 631.15c-3.028-0.175-5.673-1.676-7.384-3.925l-0.018-0.025-28.409-37.595-51.975 137.655c-1.481 3.741-5.067 6.34-9.26 6.34-5.486 0-9.933-4.447-9.933-9.933 0-0.022 0-0.045 0-0.067v0.003l2.926-232.448c0.097-4.385 2.992-8.068 6.965-9.343l0.071-0.020c0.878-0.287 1.889-0.452 2.939-0.452 3.398 0 6.391 1.734 8.142 4.366l0.022 0.036 23.128 33.646 72.631-229.961c1.046-3.364 3.757-5.915 7.145-6.716l0.067-0.013c0.609-0.139 1.308-0.219 2.026-0.219s1.417 0.080 2.089 0.231l-0.063-0.012c4.644 0.871 8.112 4.895 8.112 9.728 0 0.232-0.008 0.461-0.024 0.689l0.002-0.031-18.798 328.558c-0.228 5.305-4.584 9.52-9.924 9.52-0.168 0-0.334-0.004-0.5-0.012l0.023 0.001zM960.717 551.57c-1.102 0.599-2.413 0.952-3.807 0.952-1.018 0-1.992-0.188-2.89-0.531l0.055 0.019-34.509-13.019 23.025 112.64c0.082 0.423 0.128 0.91 0.128 1.407 0 4.29-3.478 7.768-7.768 7.768-2.75 0-5.166-1.429-6.546-3.585l-0.019-0.031-95.203-154.77c-0.689-1.134-1.097-2.505-1.097-3.972 0-2.026 0.778-3.87 2.053-5.249l-0.005 0.005c1.373-1.683 3.448-2.75 5.771-2.75 1.145 0 2.229 0.259 3.197 0.721l-0.045-0.019 29.403 12.581-47.821-182.272c-0.164-0.596-0.259-1.28-0.259-1.986 0-2.137 0.865-4.072 2.263-5.474v0c0.734-0.719 1.596-1.309 2.549-1.733l0.055-0.022c0.853-0.356 1.844-0.563 2.883-0.563 2.919 0 5.457 1.632 6.752 4.033l0.020 0.041 124.709 225.134c0.645 1.115 1.025 2.453 1.025 3.88 0 2.89-1.56 5.415-3.884 6.779l-0.037 0.020z" />
<glyph unicode="&#x10ffe8;" glyph-name="head_2" horiz-adv-x="916" d="M598.66 944.494l-0.819 0.293h-0.161c-33.985 9.656-73.016 15.208-113.344 15.208-36.437 0-71.815-4.532-105.602-13.064l2.969 0.635c-2.686-0.336-5.11-0.9-7.431-1.687l0.263 0.077-4.696-1.317c-6.583-1.755-13.268-3.657-20.275-5.851-49.928-13.511-93.617-34.439-132.379-61.869l1.292 0.868c-66.944-47.528-115.325-117.397-134.436-198.561l-0.454-2.289c-5.684-19.841-10.067-43.282-12.289-67.349l-0.116-1.552c-0.437-3.56-0.686-7.681-0.686-11.86 0-5.625 0.452-11.145 1.321-16.525l-0.079 0.59c0.755-4.496 1.186-9.677 1.186-14.958 0-0.141 0-0.282-0.001-0.424v0.022-0.439c-0.147-16.017-4.364-31.017-11.664-44.058l0.239 0.465-48.406-87.625c-7.97-14.134-12.844-30.953-13.295-48.871l-0.003-0.134c-0.016-0.611-0.025-1.331-0.025-2.053 0-33.079 18.868-61.75 46.428-75.841l0.481-0.223c-1.124-3.384-2.037-7.392-2.569-11.518l-0.035-0.331c-0.189-1.998-0.297-4.321-0.297-6.668 0-15.257 4.549-29.452 12.364-41.303l-0.175 0.282c-0.951-4.28-1.497-9.195-1.497-14.238 0-15.545 5.18-29.88 13.908-41.374l-0.123 0.169v-66.56c-0.028-0.67-0.044-1.456-0.044-2.246 0-15.553 6.151-29.669 16.152-40.048l-0.017 0.018c4.473-4.699 9.673-8.653 15.43-11.693l0.325-0.157c0.322-0.293 0.629-0.439 0.951-0.731l0.307-0.293c23.055-19.602 58.909-28.379 106.628-26.185 25.72 1.355 49.848 4.907 73.182 10.5l-2.731-0.552c3.128 0.662 6.815 1.133 10.578 1.311l0.159 0.006 26.8-99.474c2.243-8.432 8.528-15.021 16.6-17.65l0.178-0.050c2.395-0.834 5.155-1.316 8.028-1.316 6.074 0 11.645 2.154 15.991 5.739l-0.043-0.034c5.902 4.722 9.65 11.925 9.65 20.003 0 2.355-0.319 4.635-0.915 6.801l0.042-0.179-30.72 114.249c-3.133 11.364-12.211 20.017-23.594 22.49l-0.207 0.038c-5.869 1.122-12.619 1.763-19.519 1.763-8.45 0-16.676-0.962-24.573-2.783l-0.013-0.004c-39.336-9.509-106.789-15.945-131.657 5.12-1.366 1.161-2.588 2.405-3.69 3.752l-0.041 0.051c-4.003 5.305-6.411 12.009-6.411 19.276 0 1.145 0.060 2.277 0.177 3.391l-0.012-0.139c2.926 9.070 13.488 47.689-6.685 76.946-2.083 3.064-4.306 5.742-6.758 8.192v0l-0.907 1.024c-2.721 2.782-4.4 6.594-4.4 10.797 0 2.867 0.781 5.552 2.142 7.853l-0.039-0.072 6.524 14.482-9.977 12.434c-5.184 5.461-8.572 12.67-9.194 20.656l-0.007 0.117c0.307 2.317 1.478 4.315 3.173 5.692l0.016 0.013c5.391 4.837 8.77 11.825 8.777 19.601v7.754c-0.006 12.046-8.131 22.192-19.198 25.264l-0.184 0.044c-10.717 2.642-20.145 6.56-28.779 11.677l0.487-0.267c-7.913 5.154-13.071 13.959-13.071 23.968 0 5.054 1.315 9.801 3.622 13.917l-0.074-0.144 63.722 115.419c2.297 3.218 16.545 27.209 10.24 91.721-0.056 0.641-0.087 1.387-0.087 2.141 0 1.309 0.096 2.596 0.28 3.853l-0.017-0.143c0 0.439 0.117 1.024 0.132 1.317l3.028 27.355 0.176 1.317c14.541 73.728 66.867 204.8 253.835 255.269h1.419l5.544 1.902c0.322 0.146 0.644 0.146 0.936 0.293l3.789 0.731c29.346 6.068 63.1 9.58 97.66 9.655h2.984c0.944 0.010 2.059 0.016 3.176 0.016 45.749 0 89.285-9.476 128.752-26.571l-2.099 0.809c136.491-58.474 231.962-188.433 239.637-341.526l0.037-0.929c0.169-4.133 0.265-8.984 0.265-13.858 0-9.589-0.372-19.092-1.104-28.494l0.078 1.245v-0.293c-14.949-142.109-108.761-259.068-236.334-307.238l-2.536-0.84c-3.113-1.217-5.796-2.847-8.142-4.859l0.038 0.031c-9.958-5.686-16.561-16.239-16.561-28.334 0-3.248 0.476-6.385 1.363-9.345l-0.059 0.23 3.803-13.312 30.866-131.657c2.223-9.011 8.954-16.052 17.605-18.677l0.183-0.048c2.205-0.686 4.741-1.081 7.368-1.081 14.163 0 25.644 11.481 25.644 25.644 0 1.922-0.212 3.795-0.613 5.597l0.032-0.171-28.438 133.851c152.26 64.99 257.375 212.749 259.027 385.253l0.002 0.21c0 3.072 0 6.144 0 9.362-2.962 193.572-135.603 355.357-314.744 402.505l-2.945 0.659zM353.251 341.943c-74.281 26.845-126.413 96.752-126.413 178.834s52.132 151.989 125.092 178.416l1.321 0.418c8 2.878 13.618 10.4 13.618 19.234 0 2.439-0.428 4.779-1.214 6.947l0.045-0.142c-2.961 7.977-10.507 13.558-19.357 13.558-2.403 0-4.711-0.412-6.855-1.168l0.144 0.044c-90.274-32.609-153.633-117.559-153.633-217.307s63.36-184.698 152.028-216.8l1.605-0.508c1.905-0.744 4.11-1.174 6.415-1.174 0.136 0 0.272 0.001 0.407 0.004h-0.020c0.002 0 0.004 0 0.006 0 11.27 0 20.407 9.136 20.407 20.407 0 8.829-5.607 16.348-13.453 19.192l-0.142 0.045zM615.834 738.085c-2.006 0.715-4.321 1.129-6.732 1.129-3.226 0-6.28-0.74-9-2.060l0.123 0.054c-4.873-2.332-8.595-6.416-10.4-11.416l-0.044-0.141c-0.744-2.036-1.175-4.386-1.175-6.837 0-3.204 0.736-6.236 2.048-8.937l-0.053 0.122c2.32-4.891 6.444-8.61 11.491-10.345l0.139-0.042c74.278-26.857 126.405-96.767 126.405-178.852 0-82.358-52.474-152.459-125.811-178.696l-1.325-0.414c-8.026-2.864-13.667-10.399-13.667-19.251 0-11.262 9.13-20.392 20.392-20.392 0.001 0 0.002 0 0.004 0v0c0.109-0.002 0.236-0.004 0.365-0.004 2.283 0 4.466 0.431 6.471 1.216l-0.121-0.042c90.742 32.352 154.525 117.532 154.525 217.61 0 99.745-63.36 184.692-152.028 216.789l-1.605 0.508zM640.702 531.822l-35.021 23.406c-3.159 2.147-7.056 3.428-11.253 3.428-2.34 0-4.587-0.398-6.676-1.13l0.142 0.043-11.791-3.95c-1.058 3.926-2.112 7.091-3.318 10.181l0.231-0.673 30.471 15.214c6.764 3.402 11.323 10.287 11.323 18.237 0 1.784-0.23 3.515-0.661 5.164l0.031-0.142-11.703 46.519c-2.301 8.98-10.322 15.512-19.868 15.512-1.734 0-3.417-0.215-5.025-0.621l0.141 0.030c-8.949-2.323-15.45-10.329-15.45-19.853 0-1.729 0.214-3.407 0.617-5.011l-0.030 0.141 7.695-30.866-19.705-9.801c-13.876 14.326-31.877 24.58-52.085 28.847l-0.665 0.118v179.931c0.037 0.463 0.059 1.003 0.059 1.547 0 11.311-9.169 20.48-20.48 20.48s-20.48-9.169-20.48-20.48c0-0.544 0.021-1.084 0.063-1.618l-0.004 0.071v-179.931c-20.872-4.391-38.871-14.644-52.725-28.938l-0.026-0.026-19.602 9.801 7.695 30.866c0.2 1.075 0.314 2.311 0.314 3.574 0 11.311-9.169 20.48-20.48 20.48-9.032 0-16.699-5.847-19.421-13.962l-0.042-0.144-11.703-46.665c-0.408-1.52-0.643-3.266-0.643-5.066 0-7.934 4.554-14.804 11.19-18.14l0.117-0.053 30.471-15.214c-1.17-3.072-2.209-6.29-3.087-9.509l-11.791 3.95c-1.948 0.688-4.194 1.085-6.533 1.085-4.197 0-8.096-1.28-11.326-3.471l0.071 0.045-34.992-23.406c-5.514-3.692-9.096-9.897-9.096-16.938 0-1.778 0.228-3.502 0.657-5.146l-0.031 0.141c2.389-8.873 10.34-15.306 19.801-15.36h0.006c4.216 0.002 8.138 1.257 11.416 3.413l-0.079-0.049 26.683 17.847 13.517-4.535c2.464-9.516 5.787-17.838 10.005-25.602l-0.292 0.587-10.576 2.048c-1.226 0.264-2.634 0.415-4.078 0.415-6.633 0-12.522-3.188-16.218-8.115l-0.038-0.052-35.006-46.665c-2.491-3.352-3.988-7.572-3.988-12.142 0-11.257 9.083-20.393 20.32-20.479h0.008c6.626 0.030 12.517 3.154 16.306 8l0.035 0.046 27.282 36.425 40.229-8.046c1.916-2.194 3.891-4.389 5.851-6.729-10.466-11.78-16.859-27.383-16.859-44.479 0-37.059 30.042-67.101 67.101-67.101s67.101 30.042 67.101 67.101c0 17.096-6.393 32.698-16.919 44.547l0.060-0.069c2.019 2.341 3.994 4.535 5.851 6.729l40.243 8.046 27.268-36.279c3.767-4.985 9.679-8.177 16.338-8.192h0.002c11.245 0.086 20.328 9.222 20.328 20.479 0 4.57-1.497 8.79-4.027 12.197l0.039-0.055-34.992 46.665c-3.739 4.98-9.633 8.167-16.27 8.167-1.444 0-2.852-0.151-4.211-0.437l0.132 0.023-10.562-2.048c3.93 7.177 7.258 15.498 9.554 24.237l0.174 0.778 13.502 4.535 26.697-17.847c3.192-2.164 7.128-3.455 11.366-3.455 11.28 0 20.424 9.144 20.424 20.424 0 7.042-3.564 13.251-8.986 16.923l-0.072 0.046zM477.681 356.133c-14.375 0.008-26.024 11.663-26.024 26.039 0 14.381 11.658 26.039 26.039 26.039s26.039-11.658 26.039-26.039v0c-0.017-14.364-11.648-26.006-26.006-26.039h-0.003z" />
<glyph unicode="&#x10ffe9;" glyph-name="head_1" horiz-adv-x="917" d="M599.136 944.552l-0.834 0.263h-0.146c-34.015 9.661-73.081 15.215-113.444 15.215-36.406 0-71.756-4.519-105.521-13.026l2.971 0.634c-2.787-0.473-5.201-1.073-7.543-1.831l0.375 0.105-4.696-1.229c-6.598-1.741-13.268-3.672-20.29-5.852-49.931-13.524-93.622-34.435-132.406-61.831l1.303 0.873c-66.935-47.573-115.318-117.458-134.465-198.632l-0.456-2.294c-5.657-19.825-10.035-43.265-12.272-67.327l-0.118-1.575c-0.434-3.557-0.682-7.674-0.682-11.85 0-5.629 0.45-11.152 1.316-16.536l-0.078 0.592c0.746-4.467 1.172-9.614 1.172-14.861 0-0.175 0-0.351-0.001-0.526v0.027-0.439c-0.154-16.017-4.37-31.016-11.665-44.060l0.24 0.466-48.407-87.626c-7.942-14.188-12.807-31.052-13.28-49.011l-0.003-0.142c-0.015-0.593-0.023-1.291-0.023-1.99 0-33.096 18.865-61.786 46.428-75.904l0.481-0.224c-1.169-3.414-2.083-7.425-2.576-11.565l-0.028-0.284c-0.185-1.982-0.291-4.287-0.291-6.616 0-15.274 4.546-29.487 12.36-41.358l-0.175 0.284c-0.951-4.268-1.496-9.171-1.496-14.2 0-15.51 5.181-29.809 13.906-41.263l-0.122 0.167v-66.561c-0.030-0.7-0.048-1.522-0.048-2.347 0-15.568 6.152-29.699 16.157-40.095l-0.018 0.019c4.441-4.699 9.649-8.614 15.436-11.556l0.319-0.147 0.936-0.878 0.307-0.293c23.070-19.603 58.925-28.38 106.658-26.186 25.777 1.44 49.889 4.988 73.239 10.509l-2.816-0.561c3.173 0.78 6.866 1.304 10.654 1.459l0.113 0.004 26.785-99.622c2.296-8.404 8.559-14.97 16.599-17.649l0.18-0.052c2.398-0.835 5.163-1.317 8.040-1.317 6.080 0 11.657 2.154 16.009 5.741l-0.043-0.035c5.859 4.726 9.576 11.904 9.576 19.951 0 2.374-0.323 4.672-0.929 6.853l0.043-0.18-30.72 114.397c-3.137 11.333-12.229 19.948-23.613 22.346l-0.203 0.036c-5.962 1.131-12.819 1.778-19.828 1.778-8.331 0-16.449-0.914-24.258-2.648l-0.005-0.008c-39.337-9.509-106.79-16.092-131.659 5.12-1.403 1.128-2.634 2.377-3.707 3.753l-0.038 0.050c-3.995 5.254-6.4 11.906-6.4 19.119 0 1.149 0.061 2.284 0.18 3.402l-0.012-0.139c2.926 9.216 13.488 47.836-6.685 77.094-2.131 3.050-4.352 5.725-6.771 8.205l0.013-0.013-0.922 1.024c-2.725 2.746-4.408 6.528-4.408 10.704 0 2.851 0.785 5.518 2.15 7.798l-0.038-0.069 6.524 14.629-9.962 12.434c-5.223 5.437-8.622 12.66-9.195 20.666l-0.006 0.107c0.307 2.317 1.478 4.315 3.173 5.693l0.016 0.013c5.395 4.791 8.778 11.745 8.778 19.489 0 0.040 0 0.080 0 0.12v-0.006 7.753c-0.013 12.048-8.142 22.193-19.213 25.264l-0.184 0.044c-10.717 2.642-20.146 6.56-28.779 11.678l0.487-0.267c-7.908 5.162-13.061 13.968-13.061 23.978 0 5.050 1.311 9.793 3.612 13.908l-0.074-0.144 63.738 115.421c2.267 3.365 16.545 27.21 10.24 91.722-0.056 0.631-0.088 1.365-0.088 2.107 0 1.321 0.101 2.619 0.296 3.886l-0.018-0.142c0 0.585 0.102 1.024 0.117 1.317l3.043 27.356 0.176 1.317c14.541 73.729 66.883 204.803 253.853 255.389h1.331l5.544 1.814c0.235 0.093 0.542 0.193 0.855 0.277l0.066 0.015 3.803 0.805c29.3 6.001 63.041 9.519 97.575 9.684h3.057c0.906 0.009 1.976 0.014 3.047 0.014 45.811 0 89.397-9.525 128.886-26.702l-2.088 0.809c136.573-58.373 232.098-188.392 239.642-341.547l0.036-0.913c0.169-4.133 0.265-8.985 0.265-13.858 0-9.59-0.372-19.092-1.104-28.494l0.078 1.245v-0.293c-14.998-142.134-108.792-259.117-236.352-307.386l-2.536-0.842c-3.127-1.091-5.822-2.684-8.133-4.705l0.028 0.024c-9.945-5.708-16.535-16.266-16.535-28.363 0-3.238 0.472-6.365 1.351-9.317l-0.059 0.231 3.789-13.312 30.867-131.659c2.862-11.34 12.974-19.6 25.014-19.6 14.228 0 25.761 11.534 25.761 25.761 0 1.806-0.186 3.569-0.54 5.27l0.029-0.167-28.453 133.853c152.277 64.98 257.406 212.744 259.059 385.258l0.002 0.21c0 3.072 0 6.144 0 9.362-2.92 193.561-135.512 355.358-314.616 402.553l-2.945 0.66zM583.849 803.706l-16.209-46.446c40.614-14.449 74.874-38.245 101.432-68.897l0.252-0.298-35.504-26.624c-5.427 6.031-11.024 11.572-16.923 16.778l-0.222 0.192-32.33-37.157c21.805-19.117 37.757-44.42 45.13-73.162l0.219-1.006h-42.76c-14.938 40.477-53.155 68.83-98.004 68.902h-0.843c-29.531-0.337-56.078-12.839-74.913-32.721l-0.045-0.048 35.797-33.792c10.031 10.6 24.199 17.197 39.907 17.197 30.321 0 54.902-24.58 54.902-54.902s-24.58-54.902-54.902-54.902c-30.308 0-54.88 24.559-54.902 54.862v0.002h-49.226c0-0.036 0-0.078 0-0.121 0-22.961 7.505-44.17 20.195-61.307l-0.198 0.279-26.010-33.207c-21.745 25.227-34.988 58.318-34.988 94.502 0 80.146 64.971 145.118 145.118 145.118 0.019 0 0.038 0 0.057 0h-0.003c0.123 0 0.268 0.001 0.413 0.001 20.213 0 39.446-4.197 56.875-11.768l-0.923 0.357 19.134 45.349c-22.173 9.619-47.997 15.214-75.128 15.214-0.12 0-0.24 0-0.36 0h-0.801c-23.253-0.098-45.501-4.272-66.107-11.843l1.346 0.433-21.943 39.205c25.667 10.379 55.429 16.44 86.595 16.53h0.855v49.27c-159.020-0.070-287.903-128.997-287.903-288.026 0-124.612 79.134-230.741 189.89-270.875l2.005-0.635 16.413 46.52c-53.799 19.408-97.48 55.946-125.481 102.917l-0.604 1.094 39.761 19.895c34.555-56.038 95.491-92.898 165.058-93.185h0.861c19.027 0.002 37.418 2.727 54.803 7.806l-1.379-0.345 22.455-39.498c-22.644-7.781-48.735-12.278-75.875-12.288h-0.005v-49.299c0.019 0 0.041 0 0.063 0 159.064 0 288.011 128.947 288.011 288.011 0 125.054-79.701 231.494-191.078 271.293l-2.011 0.627zM302.977 475.509l-40.068-19.895c-7.958 22.765-12.555 49.008-12.555 76.326 0 82.985 42.42 156.063 106.76 198.731l0.882 0.55 21.694-38.766c-51.663-35.447-85.114-94.177-85.114-160.72 0-20.055 3.039-39.401 8.68-57.602l-0.368 1.377zM523.228 390.662c-4.389-1.024-8.85-1.902-13.371-2.633-6.217-0.888-13.433-1.418-20.765-1.463h-0.052c-26.638 0.011-51.587 7.235-73.002 19.824l0.677-0.368 25.688 32.622c13.578-6.985 29.625-11.090 46.628-11.118h0.009c10.159 0.011 19.966 1.506 29.218 4.282l-0.721-0.186c39.49 11.535 68.891 44.776 74.645 85.611l0.064 0.552h41.282c-5.831-57.449-44.304-104.615-96.365-123.007l-1.019-0.314c-3.36-1.25-7.706-2.556-12.143-3.628l-0.862-0.176zM609.874 326.003l-21.943 38.474c57.559 34.442 95.496 96.455 95.496 167.328 0 32.549-8.002 63.23-22.146 90.181l0.51-1.067 35.811 26.917c18.942-33.426 30.105-73.416 30.105-116.012 0-87.287-46.874-163.625-116.824-205.216l-1.098-0.605z" />
<glyph unicode="&#x10ffea;" glyph-name="psychologist-map-pin-o" horiz-adv-x="815" d="M407.927 960c-224.669 0-407.927-183.456-407.927-409.247 0-0.109 0-0.238 0-0.367 0-28.583 2.887-56.491 8.385-83.449l-0.455 2.673c0-1.766 0.881-3.531 0.881-6.176 44.933-201.977 361.232-505.384 374.449-517.731 6.099-6.007 14.476-9.716 23.719-9.716 0.333 0 0.666 0.005 0.997 0.014l-0.049-0.001c9.516 0.166 18.149 3.819 24.702 9.733l-0.033-0.030c13.217 13.23 327.752 315.749 372.688 513.321 0 1.766 0.881 3.531 0.881 5.293 5.606 25.279 8.818 54.313 8.818 84.098 0 0.822-0.002 1.644-0.007 2.465l0.001-0.127c0.879 225.791-182.38 409.247-407.048 409.247zM735.68 477.549v-2.646c-33.48-146.413-252.857-377.497-327.752-452.467-74.895 74.969-295.154 306.053-328.633 455.992 0.020 0.213 0.032 0.46 0.032 0.711 0 1.353-0.338 2.627-0.934 3.742l0.021-0.043c-4.312 20.603-6.869 44.346-7.048 68.655l-0.001 0.14c0 185.219 150.66 336.924 335.682 336.924s336.563-150.822 336.563-336.924c0.001-0.292 0.001-0.638 0.001-0.984 0-25.903-2.89-51.132-8.364-75.38l0.433 2.279zM407.927 729.799c-75.43-0.109-136.538-61.269-136.564-136.708v-0.002c0-74.969 61.674-136.709 136.564-136.709 75.286 0.286 136.206 61.384 136.206 136.71s-60.92 136.423-136.179 136.709h-0.028zM407.927 527.82c-0.021 0-0.046 0-0.071 0-36.047 0-65.268 29.222-65.268 65.268s29.222 65.268 65.268 65.268c36.047 0 65.268-29.222 65.268-65.268v0c0-0.054 0-0.118 0-0.182 0-35.946-29.14-65.086-65.086-65.086-0.039 0-0.079 0-0.118 0h0.006z" />
<glyph unicode="&#x10ffeb;" glyph-name="psychologist-map-pin" horiz-adv-x="794" d="M397.241 960c-219.665-1.281-397.243-179.65-397.243-399.495 0-0.449 0.001-0.898 0.002-1.347v0.069c0-208.843 329.728-568.497 367.334-608.786l29.908-32.097 30.014 32.097c37.553 40.289 367.369 399.943 367.369 608.786 0.001 0.389 0.002 0.851 0.002 1.312 0 219.887-177.663 398.279-397.272 399.46h-0.113zM397.241 393.428c-0.409-0.004-0.893-0.006-1.377-0.006-91.588 0-165.835 74.247-165.835 165.835s74.247 165.835 165.835 165.835c91.588 0 165.835-74.247 165.835-165.835 0-0.010 0-0.021 0-0.031v0.002c0.001-0.153 0.001-0.333 0.001-0.514 0-91.002-73.526-164.83-164.412-165.321h-0.047z" />
<glyph unicode="&#x10ffec;" glyph-name="psychologist-message" horiz-adv-x="1206" d="M296.732 599.631h612.142c23.385 0.173 42.276 19.171 42.276 42.58s-18.891 42.407-42.26 42.58h-612.158c-23.385-0.173-42.276-19.171-42.276-42.58s18.891-42.407 42.26-42.58h0.016zM296.732 394.002h612.142c23.516 0 42.579 19.063 42.579 42.579s-19.063 42.579-42.579 42.579h-612.142c-23.517 0-42.581-19.064-42.581-42.581s19.064-42.581 42.581-42.581v0zM42.538 118.784h136.953v-140.203c0-0.025 0-0.055 0-0.085 0-16.729 9.613-31.212 23.616-38.227l0.247-0.112c5.231-2.626 11.398-4.164 17.925-4.164 0.265 0 0.528 0.003 0.792 0.008l-0.039-0.001c9.727 0.054 18.718 3.16 26.075 8.408l-0.138-0.094 228.258 173.43h686.844c0.132-0.001 0.288-0.002 0.445-0.002 23.249 0 42.096 18.847 42.096 42.096 0 0.172-0.001 0.343-0.003 0.514v-0.026 757.093c0.002 0.146 0.003 0.318 0.003 0.49 0 23.248-18.846 42.093-42.093 42.093-0.157 0-0.314-0.001-0.471-0.003h-1120.508c-0.132 0.001-0.288 0.002-0.445 0.002-23.249 0-42.096-18.847-42.096-42.096 0-0.172 0.001-0.343 0.003-0.514v0.026-756.051c0.093-23.465 19.077-42.465 42.526-42.583h0.011zM85.075 874.84h1034.417v-670.895h-657.793c-9.728-0.054-18.719-3.16-26.078-8.408l0.138 0.094-171.192-130.858v96.595c0.002 0.145 0.003 0.316 0.003 0.488 0 23.249-18.847 42.096-42.096 42.096-0.156 0-0.313-0.001-0.469-0.003h-136.932v670.891z" />
<glyph unicode="&#x10ffed;" glyph-name="subject" horiz-adv-x="1023" d="M0 7.709v71.718h511.444v-143.427h-511.444zM0 447.444v71.157h1022.888v-142.315h-1022.888zM0 888.843v71.157h1022.888v-142.315h-1022.888z" />
<glyph unicode="&#x10ffee;" glyph-name="fax2" horiz-adv-x="1189" d="M227.923 960c-16.766-1.734-29.729-15.787-29.729-32.867 0-0.058 0-0.116 0-0.174v0.009-561.548h-168.465c-16.766-1.734-29.729-15.787-29.729-32.867 0-0.058 0-0.116 0-0.174v0.009-363.355c0-18.243 14.789-33.032 33.032-33.032v0h1123.097c18.243 0 33.032 14.789 33.032 33.032v0 363.355c0 18.243-14.789 33.032-33.032 33.032v0h-165.161v330.323c0.007 0.24 0.011 0.523 0.011 0.807 0 8.842-3.818 16.793-9.895 22.293l-0.026 0.023-231.226 231.226c-5.893 6.010-14.055 9.776-23.098 9.909h-498.812zM264.258 893.935h429.419v-198.194c0-18.243 14.789-33.032 33.032-33.032v0h198.194v-363.355h-660.645zM759.742 847.69l118.916-118.916h-118.916zM66.065 299.355h132.129v-33.032c0-18.243 14.789-33.032 33.032-33.032v0h726.71c18.243 0 33.032 14.789 33.032 33.032v0 33.032h132.129v-297.29h-1057.032zM789.471 183.742c-17.538-0.881-31.424-15.316-31.424-32.993 0-0.595 0.016-1.186 0.047-1.773l-0.003 0.082c0.881-17.538 15.316-31.424 32.993-31.424 0.595 0 1.186 0.016 1.773 0.047l-0.082-0.003h66.065c18.243 0 33.032 14.789 33.032 33.032s-14.789 33.032-33.032 33.032v0h-69.368zM971.148 183.742c-17.538-0.881-31.424-15.316-31.424-32.993 0-0.595 0.016-1.186 0.047-1.773l-0.003 0.082c0.881-17.538 15.316-31.424 32.993-31.424 0.595 0 1.186 0.016 1.773 0.047l-0.082-0.003h66.065c18.243 0 33.032 14.789 33.032 33.032s-14.789 33.032-33.032 33.032v0h-69.368z" />
<glyph unicode="&#x10ffef;" glyph-name="psychologist-zoom" d="M1011.435 8.749l-246.171 246.173c60.874 73.639 97.799 169.021 97.799 273.028 0 0.182 0 0.365 0 0.547v-0.029c0 238.231-193.3 431.532-431.53 431.532-238.441 0-431.532-193.301-431.532-431.532s193.092-431.53 431.532-431.53c0.247-0.001 0.54-0.001 0.833-0.001 103.804 0 199.003 36.846 273.23 98.173l-0.725-0.581 246.171-245.963c7.72-7.746 18.399-12.539 30.197-12.539 23.544 0 42.631 19.086 42.631 42.631 0 11.746-4.75 22.382-12.435 30.093l0.001-0.001zM431.532 182.825c-190.794 0-345.853 155.059-345.853 345.643s155.059 345.853 345.853 345.853c190.593 0 345.851-155.272 345.851-345.853s-155.267-345.643-345.851-345.643z" />
<glyph unicode="&#x10fff0;" glyph-name="psychologist-user" horiz-adv-x="1076" d="M536.299 385.324c159.033 0 288.023 128.884 288.023 287.781s-128.99 286.895-288.023 286.895-288.023-128.883-288.023-286.897 128.989-287.779 288.023-287.779zM536.299 884.967c116.624 0 212.044-95.338 212.044-211.862s-95.42-211.864-212.044-211.864-212.046 95.338-212.046 211.864 95.422 211.864 212.046 211.864zM37.992-64h1000.146c0.089-0.001 0.194-0.001 0.299-0.001 20.818 0 37.694 16.876 37.694 37.694 0 0.093 0 0.187-0.001 0.28v-0.014c0 198.621-161.686 361.048-361.36 361.048h-353.41c-198.792 0-361.36-161.544-361.36-361.048-0.001-0.079-0.001-0.173-0.001-0.267 0-20.817 16.876-37.693 37.693-37.693 0.106 0 0.211 0 0.317 0.001h-0.016zM361.36 259.089h353.41c0.046 0 0.1 0 0.154 0 144.083 0 263.204-106.879 282.404-245.681l0.169-1.492h-918.863c18.553 138.594 137.829 247.173 282.726 247.173z" />
<glyph unicode="&#x10fff1;" glyph-name="psychologist-paper-plane" horiz-adv-x="1219" d="M432.914 323.769c-5.441 0-13.603 2.719-19.042 5.441l-391.693 206.724c-13.607 8.162-24.482 24.484-21.761 40.802 2.634 16.655 14.229 30.064 29.607 35.268l0.313 0.092 1136.995 345.452c19.042 5.439 38.079-2.721 48.961-21.763 8.16-19.042 2.721-38.079-10.879-51.682l-748.026-552.172c-6.808-4.916-15.267-7.941-24.421-8.161l-0.053-0.001zM147.304 560.418l282.888-149.605 535.855 399.851zM612.438-65.196v0c-16.32 0-29.919 10.879-38.079 24.48l-179.526 388.965c-8.16 16.324-2.721 38.079 13.601 48.963l745.305 554.895c16.32 10.879 38.079 10.879 51.682-2.721 7.896-8.206 12.759-19.38 12.759-31.689 0-7.274-1.698-14.152-4.72-20.258l0.12 0.267-565.78-943.866c-8.16-10.881-21.761-19.036-35.36-19.036zM484.594 350.969l133.285-288.329 421.612 701.773s-554.897-413.444-554.897-413.444z" />
<glyph unicode="&#x10fff2;" glyph-name="location" d="M512 960c-204.49 0-370.854-166.364-370.854-370.852 0-253.776 331.878-626.334 346.008-642.070 13.272-14.782 36.444-14.756 49.692 0 14.13 15.736 346.008 388.294 346.008 642.070-0.004 204.488-166.366 370.852-370.854 370.852zM512 20.542c-111.694 132.676-304.070 394.434-304.070 568.602 0 167.668 136.404 304.072 304.070 304.072s304.070-136.404 304.070-304.070c-0.002-174.176-192.348-435.886-304.070-568.604zM512 775.732c-102.884 0-186.584-83.702-186.584-186.586s83.702-186.586 186.584-186.586 186.582 83.702 186.582 186.586-83.7 186.586-186.582 186.586zM512 469.344c-66.060 0-119.8 53.742-119.8 119.802s53.742 119.802 119.8 119.802 119.8-53.742 119.8-119.802-53.742-119.802-119.8-119.802z" />
<glyph unicode="&#x10fff3;" glyph-name="grid-world" d="M1022.771 482.133c-16.794 255.59-221.047 459.913-476.638 476.706v1.161h-68.267v-1.161c-255.59-16.794-459.913-221.116-476.706-476.706h-1.161v-68.267h1.161c16.794-255.59 221.116-459.844 476.706-476.638v-1.229h68.267v1.229c255.59 16.794 459.844 221.047 476.638 476.638h1.229v68.267h-1.229zM320.512 848.384c-32.973-43.827-60.348-98.782-80.282-161.451h-102.263c44.51 69.427 107.725 125.611 182.545 161.451zM102.263 618.667h120.013c-9.148-43.145-14.95-88.951-16.794-136.533h-135.919c3.618 48.060 14.95 94.003 32.7 136.533zM69.564 413.867h135.919c1.843-47.582 7.646-93.389 16.794-136.533h-120.013c-17.749 42.53-29.082 88.474-32.7 136.533zM137.967 209.067h102.195c19.934-62.669 47.309-117.623 80.35-161.451-74.82 35.84-138.035 91.955-182.545 161.451zM477.867 8.636c-70.178 18.773-130.594 94.14-167.253 200.431h167.253v-200.431zM477.867 277.333h-186.436c-9.626 42.53-15.701 88.474-17.681 136.533h204.117v-136.533zM477.867 482.133h-204.117c1.98 48.060 8.055 94.003 17.681 136.533h186.436v-136.533zM477.867 686.933h-167.253c36.659 106.291 97.075 181.658 167.253 200.363v-200.363zM886.033 686.933h-102.127c-20.002 62.669-47.309 117.623-80.418 161.451 74.752-35.84 138.035-92.023 182.545-161.451zM546.133 887.296c70.11-18.705 130.594-94.071 167.253-200.363h-167.253v200.363zM546.133 618.667h186.368c9.694-42.53 15.633-88.474 17.749-136.533h-204.117v136.533zM546.133 413.867h204.117c-1.98-48.060-8.055-94.003-17.749-136.533h-186.368v136.533zM546.133 8.636v200.431h167.253c-36.659-106.291-97.143-181.658-167.253-200.431zM703.488 47.616c32.973 43.895 60.416 98.782 80.418 161.451h102.127c-44.51-69.495-107.793-125.611-182.545-161.451zM921.737 277.333h-120.013c9.148 43.145 14.95 88.951 16.794 136.533h135.851c-3.55-48.060-14.882-94.003-32.631-136.533zM818.517 482.133c-1.843 47.582-7.646 93.389-16.794 136.533h120.013c17.749-42.53 29.082-88.474 32.7-136.533h-135.919z" />
<glyph unicode="&#x10fff4;" glyph-name="share" d="M813.34 304.873c-53.936 0-102.316-23.237-136.047-60.163l-293.062 140.985c7.007 19.516 10.983 40.375 10.983 62.305 0 21.858-4.012 42.753-10.983 62.287l293.062 140.93c33.73-36.889 82.147-60.181 136.047-60.181 101.863 0 184.482 82.601 184.482 184.482 0 101.899-82.619 184.482-184.482 184.482-101.881 0-184.5-82.583-184.5-184.482 0-9.785 0.998-19.298 2.469-28.629l-311.978-150.007c-30.517 22.293-67.987 35.6-108.652 35.6-101.881 0-184.482-82.583-184.482-184.427 0-101.953 82.601-184.518 184.482-184.518 40.665 0 78.153 13.289 108.634 35.618l311.96-150.044c-1.452-9.349-2.469-18.862-2.469-28.629 0-101.881 82.637-184.482 184.5-184.482 101.881 0 184.5 82.601 184.5 184.482 0 101.826-82.601 184.391-184.464 184.391zM813.34 851.039c41.664 0 75.557-33.894 75.557-75.557s-33.894-75.557-75.557-75.557c-28.72 0-47.219 15.522-55.66 24.762l-15.249 16.665-3.522 22.438c-0.762 4.865-1.144 8.696-1.144 11.691 0 41.664 33.894 75.557 75.576 75.557zM281.697 422.475l-7.734-21.567-19.007-13.906c-9.095-6.663-24.163-14.596-44.296-14.596-41.664 0-75.557 33.912-75.557 75.594 0 41.627 33.894 75.503 75.557 75.503 20.151 0 35.273-7.951 44.405-14.632l18.898-13.797 7.697-21.531c3.068-8.569 4.629-17.174 4.629-25.579 0-8.532-1.489-16.883-4.593-25.488zM813.304 44.888c-41.682 0-75.576 33.894-75.576 75.557 0 2.941 0.381 6.826 1.162 11.891l3.431 22.057 15.377 16.847c14.56 15.939 34.329 24.708 55.624 24.708 41.664 0 75.539-33.876 75.539-75.503 0.018-41.664-33.876-75.557-75.557-75.557z" />
<glyph unicode="&#x10fff5;" glyph-name="psychologist_chevron-left" horiz-adv-x="559" d="M20.445 397.428l420.822-439.563c12.080-12.934 29.235-20.995 48.272-20.995s36.193 8.062 48.237 20.957l0.035 0.038c12.429 13.182 20.068 30.999 20.068 50.601s-7.639 37.419-20.102 50.637l0.034-0.037-371.982 389.019 371.982 388.962c12.445 13.185 20.095 31.014 20.095 50.629s-7.65 37.444-20.128 50.665l0.034-0.036c-12.087 12.919-29.24 20.969-48.272 20.969s-36.185-8.050-48.238-20.932l-0.034-0.037-420.822-439.62c-12.648-13.096-20.441-30.953-20.441-50.629s7.793-37.533 20.462-50.65l-0.020 0.021z" />
<glyph unicode="&#x10fff6;" glyph-name="psychologist_chevron-right" horiz-adv-x="580" d="M558.824 397.428l-437.291-439.62c-12.827-12.94-30.608-20.951-50.26-20.951s-37.433 8.011-50.255 20.946l-0.005 0.005c-12.9 12.983-20.872 30.875-20.872 50.629s7.973 37.646 20.876 50.633l-0.004-0.004 386.747 388.962-386.747 388.962c-12.9 12.983-20.872 30.875-20.872 50.629s7.973 37.646 20.876 50.633l-0.004-0.004c12.814 12.967 30.599 20.999 50.26 20.999s37.446-8.031 50.253-20.992l0.007-0.007 437.291-439.62c12.978-12.937 21.008-30.831 21.008-50.601s-8.030-37.664-21.006-50.599l-0.002-0.002z" />
<glyph unicode="&#x10fff7;" glyph-name="psychologist_clock" d="M512-63.431c282.456 0 511.431 228.976 511.431 511.431s-228.976 511.431-511.431 511.431c-282.456 0-511.431-228.976-511.431-511.431v0c0.323-282.325 229.105-511.107 511.399-511.431h0.032zM512 887.751c242.868 0 439.751-196.883 439.751-439.751s-196.883-439.751-439.751-439.751c-242.868 0-439.751 196.883-439.751 439.751v0c0 0.017 0 0.037 0 0.057 0 242.836 196.858 439.694 439.694 439.694 0.020 0 0.040 0 0.060 0h-0.003zM488.107 387.698h170.667c20.108 0 36.409 16.301 36.409 36.409s-16.301 36.409-36.409 36.409h-134.258v209.92c0 20.108-16.301 36.409-36.409 36.409s-36.409-16.301-36.409-36.409v0-246.329c-0.002-0.136-0.003-0.297-0.003-0.458 0-19.857 16.097-35.954 35.954-35.954 0.161 0 0.322 0.001 0.482 0.003h-0.024z" />
<glyph unicode="&#x10fff8;" glyph-name="psychologist_envelope" horiz-adv-x="2272" d="M979.25-26.787c-0.008-0.077-0.008-0.158-0.008-0.248 0-1.442 0.392-2.808 1.064-3.99l-0.024 0.030c0-1.056 1.056-3.146 1.056-4.194 0.424-1.184 0.798-2.594 1.032-4.066l0.024-0.137c0.864-1.197 1.568-2.594 2.072-4.077l0.030-0.104c0.6-0.995 1.288-1.866 2.082-2.611l0.009-0.008c1.026-0.76 1.763-1.848 2.082-3.104l0.009-0.030c0.734-1.203 1.609-2.24 2.6-3.128l0.022-0.019 1.056-1.056c0.584 0 1.056-0.477 1.056-1.056v0c2.934-2.979 6.666-5.186 10.848-6.248l0.158-0.030c0.088 0.019 0.168 0.024 0.279 0.024 0.781 0 1.45-0.416 1.824-1.056l0.008-0.013c3.574-1.184 7.704-1.95 11.976-2.088l0.087-0.003h1074.325c4.36 0.158 8.48 0.919 12.376 2.189l-0.312-0.094c0.088-0.019 0.168-0.024 0.279-0.024 0.781 0 1.45 0.416 1.824 1.056l0.008 0.013c4.32 2.142 7.928 4.232 11.384 6.522l-0.376-0.232c0.584 0 1.056 0.477 1.056 1.056v0l1.056 1.056c1.056 1.056 1.568 2.088 2.617 3.146 1.026 0.76 1.763 1.848 2.082 3.104l0.009 0.030c0.798 0.746 1.502 1.624 2.072 2.568l0.030 0.046c0.864 1.197 1.568 2.594 2.072 4.077l0.030 0.104c0.707 0.878 1.128 2.018 1.128 3.251 0 0.334-0.030 0.664-0.094 0.973l0.008-0.030c0 1.056 1.056 3.146 1.056 4.194s0.534 2.088 0.534 4.194v944.867c0.013 0.328 0.024 0.717 0.024 1.11 0 22.552-18.269 40.824-40.824 40.824-0.030 0-0.040 0-0.073 0h-1071.697c-22.342-0.2-40.365-18.344-40.365-40.727 0-0.416 0.008-0.855 0.024-1.261l-0.003 0.061v-940.686c0.36-0.936 0.584-2.039 0.584-3.176 0-0.352-0.030-0.707-0.056-1.056l0.008 0.034zM1107.126 21.405l301.852 371.038 125.256-90.653c6.361-4.264 14.173-6.818 22.6-6.818 0.158 0 0.328 0.003 0.48 0.008h-0.030c0.040 0 0.094 0 0.158 0 8.525 0 16.455 2.536 23.072 6.905l-0.158-0.094 125.256 90.653 301.852-371.038h-900.321zM2054.074 94.784l-281.952 345.355 280.888 202.28v-547.641h1.056zM1059.955 876.148h993.082v-132.576l-495.763-355.303-497.319 355.303v132.576zM1059.955 642.422l280.888-202.28-280.888-345.355v547.639zM140.221 710.030v104.802h576.471v-104.802h-576.471zM297.452 447.998v104.802h419.236v-104.802h-419.236zM454.655 185.965v104.802h262.032v-104.802h-262.032z" />
<glyph unicode="&#x10fff9;" glyph-name="psychologist_envelope2" horiz-adv-x="1152" d="M0.768-26.88c0-0.021 0-0.047 0-0.072 0-1.381 0.356-2.68 0.981-3.808l-0.021 0.040c0.306-1.522 0.66-2.81 1.090-4.062l-0.066 0.222c0-1.28 0.96-2.56 0.96-4.48 0.918-1.073 1.623-2.357 2.030-3.768l0.018-0.072c0.96-1.28 0.96-1.92 1.984-3.2 0.971-0.806 1.674-1.905 1.976-3.16l0.008-0.040c1.135-0.917 2.108-1.971 2.912-3.15l0.032-0.050 1.024-0.64c0.58-0.026 1.041-0.503 1.041-1.087 0-0.068-0.006-0.135-0.018-0.2l0.001 0.007c2.832-2.985 6.601-5.057 10.833-5.745l0.111-0.015c0.96 0 0.96 0 1.984-1.28 3.552-1.208 7.645-1.91 11.899-1.92h1074.053c4.283 0.019 8.397 0.72 12.245 2l-0.277-0.080c0.96 0 0.96 0 1.984 1.28 4.395 2.022 7.984 3.944 11.451 6.045l-0.507-0.285c0.552 0.058 0.978 0.52 0.978 1.082 0 0.070-0.007 0.138-0.019 0.204l0.001-0.007 1.024 0.64c0.856 1.23 1.849 2.284 2.977 3.177l0.031 0.023c0.971 0.806 1.674 1.905 1.976 3.16l0.008 0.040c0.96 1.28 0.96 1.92 1.984 3.2 0.864 1.088 1.543 2.367 1.963 3.759l0.021 0.081c0.666 0.941 1.064 2.112 1.064 3.377 0 0.39-0.038 0.772-0.11 1.141l0.006-0.037c0.364 1.030 0.718 2.318 0.989 3.636l0.035 0.204c0.34 1.023 0.672 2.313 0.926 3.631l0.034 0.209v944.64c0.009 0.324 0.015 0.706 0.015 1.089 0 22.374-18.138 40.512-40.512 40.512-0.095 0-0.19 0-0.285-0.001h-1071.025c-0.080 0.001-0.174 0.001-0.269 0.001-22.41 0-40.576-18.166-40.576-40.576 0-0.36 0.005-0.72 0.014-1.078l-0.001 0.053v-940.16c0.709-0.924 1.136-2.097 1.136-3.37 0-0.393-0.041-0.776-0.118-1.146l0.006 0.036zM128.128 21.76l301.568 370.56 125.376-90.24c6.421-4.405 14.359-7.034 22.912-7.034s16.491 2.63 23.051 7.124l-0.139-0.090 125.376 90.24 301.568-370.56h-899.84zM1074.624 95.36l-281.6 344.96 280.64 201.6v-546.56h1.024zM81.344 875.52h992v-131.84l-495.616-355.84-496.64 355.84v131.84zM81.344 641.92l280.704-201.6-280.704-344.96v546.56z" />
<glyph unicode="&#x10fffa;" glyph-name="psychologist_minus" d="M0 512h1024v-128h-1024v128z" />
<glyph unicode="&#x10fffb;" glyph-name="psychologist_pencil" horiz-adv-x="1044" d="M1006.489 9.060h-969.263c-20.1-0.099-36.356-16.416-36.356-36.53 0 0 0 0 0 0v0c0.318-19.985 16.386-36.114 36.317-36.529l0.039-0.001h970.133c20.1 0.099 36.356 16.416 36.356 36.53 0 0 0 0 0 0v0c-0.454 20.234-16.934 36.47-37.22 36.53h-0.006zM0.87 330.292l-0.87-172.793c-0.003-0.176-0.005-0.385-0.005-0.593 0-10.151 4.050-19.356 10.623-26.087l-0.007 0.007c6.47-6.451 15.399-10.44 25.259-10.44 0.151 0 0.301 0.001 0.451 0.003h-0.023l171.923 0.58c10.079 0.124 19.154 4.317 25.68 11.009l0.007 0.008 593.584 593.178c6.587 6.719 10.652 15.931 10.652 26.093s-4.065 19.374-10.658 26.099l0.006-0.006-170.067 171.633c-6.789 6.429-15.979 10.382-26.093 10.382s-19.304-3.953-26.11-10.399l0.017 0.016-118.694-119.447-474.948-473.73c-6.385-6.635-10.416-15.575-10.726-25.453l-0.001-0.060zM631.679 871.284l119.621-120.027-67.32-67.262-119.621 120.027zM74.394 314.057l437.722 437.2 119.563-119.447-437.664-436.041-120.491-1.16z" />
<glyph unicode="&#x10fffc;" glyph-name="psychologist_calendar" horiz-adv-x="990" d="M960 899.868h-197.689v29.781c0 16.731-13.563 30.293-30.293 30.293s-30.293-13.563-30.293-30.293v0-29.753h-176.356v29.753c0 16.652-13.499 30.151-30.151 30.151s-30.151-13.499-30.151-30.151v-29.753h-168.96v29.753c0 16.652-13.499 30.151-30.151 30.151s-30.151-13.499-30.151-30.151v-29.753h-205.369c-0.025 0-0.055 0-0.086 0-16.605 0-30.066-13.461-30.066-30.066 0-0.040 0-0.080 0-0.12v0.006-681.785c0-0.025 0-0.055 0-0.085 0-16.621 13.474-30.094 30.094-30.094 0.020 0 0.040 0 0.060 0h185.17c30.926-127.835 144.352-221.306 279.609-221.306s248.683 93.471 279.207 219.342l0.402 1.963h185.173c0.017 0 0.037 0 0.057 0 16.621 0 30.094 13.474 30.094 30.094 0 0.030 0 0.060 0 0.090v-0.005 681.785c0 0.025 0 0.055 0 0.085 0 16.605-13.461 30.066-30.066 30.066-0.030 0-0.060 0-0.090 0h0.005zM235.804 839.538v-27.278c0-16.652 13.499-30.151 30.151-30.151s30.151 13.499 30.151 30.151v27.278h168.96v-27.278c0-16.652 13.499-30.151 30.151-30.151s30.151 13.499 30.151 30.151v27.278h176.356v-27.278c0-16.731 13.563-30.293 30.293-30.293s30.293 13.563 30.293 30.293v0 27.278h167.538v-123.392h-869.262v123.392h175.218zM495.218-3.442c-125.092 0.065-226.475 101.487-226.475 226.588 0 125.141 101.447 226.588 226.588 226.588s226.588-101.447 226.588-226.588c0-0.010 0-0.020 0-0.030v0.002c-0.13-125.124-101.568-226.512-226.698-226.56h-0.005zM782.222 218.112v5.006c0 158.508-128.496 287.004-287.004 287.004s-287.004-128.496-287.004-287.004v0-5.006h-147.627v437.703h869.262v-437.703h-147.627zM525.369 215.524v145.977c0 16.652-13.499 30.151-30.151 30.151s-30.151-13.499-30.151-30.151v-158.492c0-0.022 0-0.048 0-0.074 0-8.305 3.37-15.822 8.817-21.259v0l69.404-69.348c5.458-5.464 13.001-8.844 21.333-8.844s15.876 3.38 21.333 8.844v0c5.52 5.432 8.94 12.983 8.94 21.333s-3.42 15.901-8.936 21.329l-0.004 0.004z" />
<glyph unicode="&#x10fffd;" glyph-name="plus" d="M1024 512h-448v448h-128v-448h-448v-128h448v-448h128v448h448v128z" />
<glyph unicode="&#x10fffe;" glyph-name="phone" d="M282 478.667c62-120 162-220 282-282l94 94c12 12 30 16 44 10 48-16 100-24 152-24 24 0 42-18 42-42v-150c0-24-18-42-42-42-400 0-726 326-726 726 0 24 18 42 42 42h150c24 0 42-18 42-42 0-54 8-104 24-152 4-14 2-32-10-44z" />
<glyph unicode="&#x10ffff;" glyph-name="mail_outline" d="M512 468.667l342 214h-684zM854 170.667v426l-342-212-342 212v-426h684zM854 768.667c46 0 84-40 84-86v-512c0-46-38-86-84-86h-684c-46 0-84 40-84 86v512c0 46 38 86 84 86h684z" />
</font>
</defs>
</svg>
